JesCid (jescid) wrote,
JesCid
jescid

Categories:

Шизофренические будни и параноидальный досуг

Про шизофренические будни тут (seo, coding, КИБ).
Про досуг.
Кинули ссылку на ролик с rutube.ru, скопировала его локально (из кэша фаерфокса ~/.mozilla/firefox/default/Cache/ в tmp-r.flv), сделав файлу расширение .flv, конвертнула в .avi:
$ffmpeg -i tmp.flv -f avi Videos/Rutube.avi

Потом думаю — а ведь он на youtube наверняка есть... — сравнить? Нашла похожий, короче на 10 сек..
Сохранившийся оказался в полтора раза меньше — 3M (youtube, 76сек) vs 4.6M (rutube, 84сек) в формате .flv. Но при конвертации в .avi размер роликов оказался почти одинаков и согласован с их длительностью — 2.9M (rutube) vs 2.7M (youtube), битрейт то одинаков (200kb/s по умолчанию и я его не меняла, как видно из команды выше)! В чём дело, почему разница в размерах flv-форматов полтора раза при одинаковом качестве и разнице в 10 сек??
И тут меня посещает страшная мысль — а что же на rutube засовывают в ролик ещё — откуда лишние полтора размера??

Смотрю внимательно в лог ffmpeg:
Videos/Rutube.avi:
Input #0, flv, from 'tmp-r.flv':
Duration: 00:01:23.7, start: 0.000000, bitrate: 128 kb/s
Stream #0.0: Video: flv, yuv420p, 320x240, 25.00 fps(r)
Stream #0.1: Audio: mp3, 44100 Hz, stereo, 128 kb/s

Videos/Youtube.avi:
Input #0, flv, from 'tmp-y.flv':
Duration: 00:01:16.3, start: 0.000000, bitrate: 48 kb/s
Stream #0.0: Video: flv, yuv420p, 320x240, 29.92 fps(r)
Stream #0.1: Audio: mp3, 22050 Hz, mono, 48 kb/s

Т.е. на rutube зачем-то даже в аудио канал ставят бОльший битрейт, тогда как и видео, на мой взгляд, у них даже хуже (глубина цвета точно хуже, если сравнить одни и те же кадры), зрительный размер меньше... (хотя в скачанном виде оригинальный размер стандартный — 320x240).
А на youtube какая-то странная частота кадров: 29.92 (?).

Ролики для сравнения (они смешные и немножко разные) вот youtube и вот rutube — последний кадры у rutube такие же, как и первые у youtube — для простоты сравнения.
В общем, с youtube качать правильнее, но они — забугорье... А вот по России трафику специально, что ли, накачивают? Больше качают — больше денежек сдираем? Потому что поставить битрейт 128kb/s для таких роликов такого качества — только специально, по-моему, можно...
Tags: coding, it, scale-free networks, seo, web
Subscribe

  • Как они цитируют даже нашего всего Марка Твена…

    Пример: = Есть что-то увлекательное в науке. Можно получить обратно полный запас гипотез из такого пустячного вложения в факт. Какого такого?…

  • Грибы и квас…

    Вдруг и внезапно ещё в марте появились признания текущего менеджмента РФ о том, что оне функционируют под угрозой и принуждением извне и неспособны…

  • Новое время — новые детские игры…

    Иду до Н. по улице и со мной здороваются трое подрослей… то, что дети со мной здороваются — это обычное дело. При том часто я даже не знаю их или…

  • Post a new comment

    Error

    default userpic

    Your reply will be screened

    Your IP address will be recorded 

    When you submit the form an invisible reCAPTCHA check will be performed.
    You must follow the Privacy Policy and Google Terms of use.
  • 3 comments